Skip to main content

The Right Now Live at Old Rock House on 2011-05-28

Audio Preview

etree
The Right Now Live at Old Rock House on 2011-05-28


Topics Chicago, funk, Right, Now,


Setlist:
01 You Will Know
02 Never Met A Good Man
03 Half As Much
04 Ain't Going Back
05 Can't Keep Running
06 Before I know Your Name
07 I Am Who I Say I Am
08 Can't Speak For You
09 Till It Went Wrong
10 Ain't Nobody*
11 7 To 10

* Chaka Kahn cover


Collection TheRightNow
Band/Artist The Right Now
Venue Old Rock House
Location St. Louis, MO

Source AKG SE-5E/CE-1 (X/Y 90) > Grace Lunatec V2 > Marantz PMD620 > SanDisk SDHC
Lineage Audacity 1.3.12-beta > r8brain 1.9 > TLH FLAC6
Taped by James E
Transferred by BlingFree

Notes

The Right Now
05-28-2011
Old Rock House
St. Louis, MO


Source: AKG SE-5E/CE-1 (X/Y 90) > Grace Lunatec V2 > Marantz PMD620 > SanDisk SDHC
Location: Center balcony, 40ft +/- from stage with stand @ 3ft+
Transfer: Audacity 1.3.12-beta > r8brain 1.9 > TLH FLAC6
Credits: Thanks to ScottT and goodcooker for the gear loans. Thanks to joeshambro for the setlist and swag!


Setlist:
01 You Will Know
02 Never Met A Good Man
03 Half As Much
04 Ain't Going Back
05 Can't Keep Running
06 Before I know Your Name
07 I Am Who I Say I Am
08 Can't Speak For You
09 Till It Went Wrong
10 Ain't Nobody*
11 7 To 10

* Chaka Kahn cover


md5:
208bb384f63a6868b32e5a22a23dde2f *trn2011-05-28d1t01.wav
ea39b074e48b6c7319a9d132e7fea236 *trn2011-05-28d1t02.wav
e6e911210d194cffb0ab689d6246de7d *trn2011-05-28d1t03.wav
85a1099360df6122c45428c885f539eb *trn2011-05-28d1t04.wav
d991cfde7b3d69c7bfabcc00e8161671 *trn2011-05-28d1t05.wav
47298234be818a3f033e9e3e3fd19050 *trn2011-05-28d1t06.wav
882cbada3a956bfcb7f87f76abf99147 *trn2011-05-28d1t07.wav
6d5d046da5d941921729096f064b1805 *trn2011-05-28d1t08.wav
7e2bc808974807a2a631110b11768d6b *trn2011-05-28d1t09.wav
cb71807fb4cb17d1bc5ca4449b11e505 *trn2011-05-28d1t10.wav
70a66eca8d92a453b1ddc0a15a196708 *trn2011-05-28d1t11.wav

ffp:
trn2011-05-28d1t01.flac:074cf04614d7d37e9e7804f7ea05767e
trn2011-05-28d1t02.flac:c55c419374ba4061359b1d50335740a9
trn2011-05-28d1t03.flac:cf3d305848ac6b67bfc131fac402659b
trn2011-05-28d1t04.flac:ec2b72c9afd996d953575b4bf39831f2
trn2011-05-28d1t05.flac:ba02627b615ef2894090c3f79350bae5
trn2011-05-28d1t06.flac:15a6658b2b2e540ca76fbcd477148978
trn2011-05-28d1t07.flac:3cc367bfea577d760869f26cf8a11273
trn2011-05-28d1t08.flac:e6941d10ca37e44d1b644e572a8912b8
trn2011-05-28d1t09.flac:9c0c49ab7fc879db8f39399463f14e86
trn2011-05-28d1t10.flac:3e60535e23729b6b0065e7f083da1da5
trn2011-05-28d1t11.flac:1edae9e186ded833534ed5626fa1c1b9

shntool:
length expanded size cdr WAVE problems fmt ratio filename
3:52.35 41007164 B --- -- ---xx flac 0.5703 trn2011-05-28d1t01.flac
3:22.55 35762204 B --- -- ---xx flac 0.5514 trn2011-05-28d1t02.flac
4:10.48 44212940 B --- -- ---xx flac 0.5054 trn2011-05-28d1t03.flac
5:14.35 55471964 B --- -- ---xx flac 0.5401 trn2011-05-28d1t04.flac
5:26.46 57614636 B --- -- ---xx flac 0.5163 trn2011-05-28d1t05.flac
7:23.54 78272252 B --- -- ---xx flac 0.5805 trn2011-05-28d1t06.flac
4:00.45 42441884 B --- -- ---xx flac 0.5857 trn2011-05-28d1t07.flac
5:14.13 55420220 B --- -- ---xx flac 0.5488 trn2011-05-28d1t08.flac
4:27.30 47169404 B --- -- ---xx flac 0.5572 trn2011-05-28d1t09.flac
4:17.28 45400700 B --- -- ---xx flac 0.5876 trn2011-05-28d1t10.flac
6:48.34 72051212 B --- -- ---xx flac 0.5814 trn2011-05-28d1t11.flac
54:18.48 574824580 B 0.5579 (11 files)

comment
Reviews

There are no reviews yet. Be the first one to write a review.
In Collection
The Right Now
In Collection
Live Music Archive
Uploaded by
BlingFree
on 5/29/2011
Views
264
Favorites
1
SIMILAR ITEMS (based on metadata)
The Insinuators
by The Insinuators
etree
eye 64
favorite 0
comment 0
Source: Zoom > Pro Tools
The Insinuators
by The Insinuators
etree
eye 32
favorite 0
comment 0
Source: multitrack/board
The Insinuators
by The Insinuators
etree
eye 22
favorite 0
comment 0
Source: shure MV 88 > iPhone 6s
The Insinuators
by The Insinuators
etree
eye 54
favorite 0
comment 0
Source: matrix
The Insinuators
by The Insinuators
etree
eye 119
favorite 0
comment 0
Source: Zoom H2 plus Go Pro Matrix
The Insinuators
by The Insinuators
etree
eye 82
favorite 0
comment 0
The Insinuators
by The Insinuators
etree
eye 36
favorite 0
comment 0
Source: Shure MV 88 > iPhone 6s
The Insinuators
by The Insinuators
etree
eye 37
favorite 0
comment 0
Source: SBD > Interface
The Insinuators
by The Insinuators
etree
eye 52
favorite 0
comment 0
Source: shure mv 88 > iPhone 6s
The Insinuators
by The Insinuators
etree
eye 165
favorite 0
comment 0
Source: Shure MV 88 > iPhone 6s